topblog Ivoire blogs

21 octobre 2011

KADHAFI SERAIT-IL MORT DEPUIS LE 19 OCTOBRE 2011 ?

De nombreux mystères sur la mort du guide libyen, de sources officielles, le colonel Kadhafi, est mort le20 octobre 2011 vers Syrte, or, un site russe vient de révéler, à partir des données informatiques tirées de « Youtube », qu'une vidéo montrant le colonel Kadhafi arrêté par les combattants du « CNT » a été enregistrée depuis le 19 octobre 2011.


donnes-informatiques-a-partir-de-youtube-sur-l-enregistrement-de-la-video-sur-la-mort-de-kadhafi.jpg


Données informatiques tirées  depuis le site « Youtube » révélées par un site russe, sur la date de l'enregistrement de la mort deKadhafi.

 


INFORMATION CONTENUE SUR L'IMAGE CI-DESSUS :

Vidéo aboute Gaddafis Décédé est faux! Look at Date from information about video De regarder la date à partir d'informations sur la vidéo 
General Général 
Complete name: C: T Footage Shows Gaddafi's bloodied body.mp4 Nom complet: C: T images montrent body.mp4 ensanglanté Kadhafi 
Format: MPEG-4 Format: MPEG-4 
Format profile: Base Media / Version 2 Profil du format: Base Media / Version 2 
Codec ID: MP42 Codec ID: MP42 
File size: 2.82 MiB Taille du fichier: 2,82 Mio 
Duration: 32S 160ms Durée: 32s 160ms 
Overall bit Rate: 736 Kbps Débit global moyen: 736 Kbps 
Encoded Date: 19/10/2011 14:16:48 UTC Date d'encodage: 19/10/2011 14:16:48 UTC 
Tagged Date: 10.19.2011 UTC 2:16:48 pm Date de Tagged: 19/10/2011 14:16:48 UTC 
gsst: 0 gsst: 0 
gstd: 32 160 gstd: 32 160 
gssd: BD9104905HH1319138306696132 gshh : oo.preferred.one-skp1.v2.lsca gssd: BD9104905HH1319138306696132 GSHH: oo.preferred.one-skp1.v2.lsca 
che8.c.youtube.com Video ID: 1 Format: AVC Format / Info: Advanced Video Codec Format Profile:
Baseline@L3.0 Format settings, CABAC: No Format settings, ReFrames: a frame Format settings, GOP: M = 1 , N = 60 Codec ID: AVC1 Codec ID / Info: Advanced Video Coding Duration: 32S 160ms Bit Rate mode: Variable Bit Rate: 640 Kbps Maximum bit Rate: 941 Kbps Width: 640 pixels Height: 360 pixels Display Aspect ratio: 16: 9 Frame Rate mode: Constant Frame Rate: 25.000 fps Color space: YUV Chroma subsampling: 4:2:0 Bit depth: 8 bits Scan type: Progressive Bits / (Pixel * Frame): 0.111 Stream size: 2.45 MiB (87%) Tagged Date: 19.10.2011 14:16:48 UTC Audio ID: 2 Format: AAC Format / Info: Advanced Audio Codec Format Profile: LC Codec ID: 40 Duration: 32S 112ms Bit Rate mode: Variable Bit Rate: 91.9 Kbps Maximum bit rate: 102 Kbps Channel (s): 2 channels Channel positions: Front: LR Sampling Rate: 44.1 KHz mode Compression: Lossy Stream size: 360 KiB (12%) Title: File Produced by IsoMedia Google, 5.11.2011 encoded Date: 19/10/2011 2:16:48 pm UTC Tagged Date: 10/19/2011 14:16:48 UTC ... che8.c.youtube.com Vidéo ID: 1 Format: AVC Format / Info: Advanced Video Codec Profil du format: Baseline@L3.0 Paramètres du format, CABAC: Non Paramètres du format, RefFrames: un format de trame paramètres, GOP: M = 1 , N = 60 Identifiant du codec: AVC1 Identifiant du codec / Info: Advanced Video Coding Durée: 32s 160ms en mode Bit Rate: Variable Bit Rate: 640 Kbps Débit maximum: 941 Kbps Largeur: 640 pixels Hauteur: 360 pixels Display Aspect Ratio: 16: 9 Mode Frame Rate: Frame Rate constant: 25.000 fps Espace de couleur: YUV sous-échantillonnage Chroma: 4:2:0 Profondeur: 8 bits Type: Progressif Bits / (Pixel * Image): 0.111 Taille du flux: 2,45 Mio (87%) Date de Tagged: 19/10/2011 14:16:48 UTC Audio ID: 2 Format: AAC Format / Info: Advanced Audio Codec Profil: LC Codec ID: 40 Durée: 32s 112ms Type de débit: Variable Bit Rate: 91,9 Kbps Débit maximum Taux: 102 Kbps (s): 2 canaux Position des cannaux: Front: LR Echantillonnage: 44,1 KHz Mode de compression: Taille du flux Lossy: 360 Kio (12%) Titre: fichier produit par IsoMedia Google, 05/11/2011 Date d'encodage: 19/10/2011 14:16:48 UTC Date de Tagged: 19/10/2011 14:16:48 UTC ... " "


LE SPECTACLE DE LA MORT DE KADHAFI :

A environ 0830 heure locale (GMT0630) « aujourd’hui, les avions de l’+ OTANont bombardé deux véhicules militaires des forces pro-kadhafi dans les environs de Syrte », a déclaré le colonel Roland Lavoie, porte-parole de la mission de l’« OTAN » libyennes. Le porte-parole n’a pas précisé si Kadhafi était dans le convoi ou non.

Un commandant Libyen du « CNT (Conseil national de transition) » a déclaré Kadhafi a été tué lors d'un raid aérien qui a visé un convoi qui tentait de fuir Syrte. Cependant, l’« OTAN » n’a pas confirmé le rapport des médias affirmant la capture ou la mort de Kadhafi.


VIDÉO : LES IMAGES DE LA MORT PRÉSUMÉE DU GUIDE LIBYEN VERS SYRTE LE 20 OCTOBRE 2011.


VENDREDI 21 OCTOBRE 2011 , LE CNT DEVRA ANNONCÉ LA LIBYE LIBERÉE

La libération de la Libye est annoncée au plus tard pour vendredi 21 octobre 2011Moustapha Abdeljalil, le chef du « Conseil national de transition », « va proclamer aujourd’hui ou au plus tard vendredi la +libérationdu pays et donner des détails sur l’assassinat de Kadhafi », déclare le chef de l’exécutif du « CNT», Mahmoud Jibril, alors que Syrte, le dernier bastion des « forces loyales » à l’ancien dirigeant serait quasiment libérée. « Je félicite le peuple libyen pour cette journée historique et je l’appelle à cette occasion à laisser de côté ses rancunes et à proclamer d’une seule voix Libye, Libye, Libye », poursuit-il.

Selon les derniers rapports, les batailles féroces continuent à Tripoli sous le silence complet des médias. De violents combats ont été signalés autour de l'aéroport de Tripoli, les « Forces de défense libyennes » ont utilisé des roquettes et des grenades ralentissant la route des mercenaires. Cela vient après que des combattants touaregs du sud de la Libye et des pays frontaliers tels que le nord du Mali soient venu aider la résistance pour faire échouer l'occupation de l'« OTAN ». Les combattants touaregs ont déjà contribué à la libération de Ghadames et des combats dans le sud des villes limitrophes de Tripoli ont déjà été signalés.

Source : NERRATI

 

Publié dans Libye | Commentaires (0) |  Imprimer |  Facebook | | | |

Les commentaires sont fermés.